  0
SECTION
  2
HEADER
  9
$ACADVER
  1
AC1012
  9
$DWGCODEPAGE
  3
ANSI_1252
  9
$INSBASE
 10
0.0
 20
0.0
 30
0.0
  9
$EXTMIN
 10
4.276062044636418
 20
5.391952541880254
 30
-0.0015258207003583
  9
$EXTMAX
 10
8.102966331996682
 20
7.269241351947702
 30
0.0000000349246037
  9
$LIMMIN
 10
0.0
 20
0.0
  9
$LIMMAX
 10
12.0
 20
9.0
  9
$ORTHOMODE
 70
     0
  9
$REGENMODE
 70
     1
  9
$FILLMODE
 70
     1
  9
$QTEXTMODE
 70
     0
  9
$MIRRTEXT
 70
     1
  9
$DRAGMODE
 70
     2
  9
$LTSCALE
 40
1.0
  9
$OSMODE
 70
     0
  9
$ATTMODE
 70
     1
  9
$TEXTSIZE
 40
0.09375
  9
$TRACEWID
 40
0.05
  9
$TEXTSTYLE
  7
STANDARD
  9
$CLAYER
  8
0
  9
$CELTYPE
  6
BYLAYER
  9
$CECOLOR
 62
   256
  9
$CELTSCALE
 40
1.0
  9
$DELOBJ
 70
     1
  9
$DISPSILH
 70
     0
  9
$DIMSCALE
 40
0.5208333333333334
  9
$DIMASZ
 40
0.18
  9
$DIMEXO
 40
0.0625
  9
$DIMDLI
 40
0.38
  9
$DIMRND
 40
0.0
  9
$DIMDLE
 40
0.0
  9
$DIMEXE
 40
0.18
  9
$DIMTP
 40
0.0
  9
$DIMTM
 40
0.0
  9
$DIMTXT
 40
0.18
  9
$DIMCEN
 40
0.09
  9
$DIMTSZ
 40
0.0
  9
$DIMTOL
 70
     0
  9
$DIMLIM
 70
     0
  9
$DIMTIH
 70
     1
  9
$DIMTOH
 70
     1
  9
$DIMSE1
 70
     0
  9
$DIMSE2
 70
     0
  9
$DIMTAD
 70
     0
  9
$DIMZIN
 70
     0
  9
$DIMBLK
  1

  9
$DIMASO
 70
     1
  9
$DIMSHO
 70
     1
  9
$DIMPOST
  1

  9
$DIMAPOST
  1

  9
$DIMALT
 70
     0
  9
$DIMALTD
 70
     2
  9
$DIMALTF
 40
25.4
  9
$DIMLFAC
 40
1.0
  9
$DIMTOFL
 70
     0
  9
$DIMTVP
 40
0.0
  9
$DIMTIX
 70
     0
  9
$DIMSOXD
 70
     0
  9
$DIMSAH
 70
     0
  9
$DIMBLK1
  1

  9
$DIMBLK2
  1

  9
$DIMSTYLE
  2
STANDARD
  9
$DIMCLRD
 70
     0
  9
$DIMCLRE
 70
     0
  9
$DIMCLRT
 70
     0
  9
$DIMTFAC
 40
1.0
  9
$DIMGAP
 40
0.09
  9
$DIMJUST
 70
     0
  9
$DIMSD1
 70
     0
  9
$DIMSD2
 70
     0
  9
$DIMTOLJ
 70
     1
  9
$DIMTZIN
 70
     0
  9
$DIMALTZ
 70
     0
  9
$DIMALTTZ
 70
     0
  9
$DIMFIT
 70
     3
  9
$DIMUPT
 70
     0
  9
$DIMUNIT
 70
     2
  9
$DIMDEC
 70
     2
  9
$DIMTDEC
 70
     2
  9
$DIMALTU
 70
     2
  9
$DIMALTTD
 70
     2
  9
$DIMTXSTY
  7
STANDARD
  9
$DIMAUNIT
 70
     0
  9
$LUNITS
 70
     2
  9
$LUPREC
 70
     4
  9
$SKETCHINC
 40
0.1
  9
$FILLETRAD
 40
0.5
  9
$AUNITS
 70
     0
  9
$AUPREC
 70
     0
  9
$MENU
  1
.
  9
$ELEVATION
 40
0.0
  9
$PELEVATION
 40
0.0
  9
$THICKNESS
 40
0.0
  9
$LIMCHECK
 70
     0
  9
$BLIPMODE
 70
     0
  9
$CHAMFERA
 40
0.5
  9
$CHAMFERB
 40
0.5
  9
$CHAMFERC
 40
1.0
  9
$CHAMFERD
 40
0.0
  9
$SKPOLY
 70
     0
  9
$TDCREATE
 40
2452796.513083403
  9
$TDUPDATE
 40
2452796.518529907
  9
$TDINDWG
 40
0.0054468634
  9
$TDUSRTIMER
 40
0.0054468634
  9
$USRTIMER
 70
     1
  9
$ANGBASE
 50
0.0
  9
$ANGDIR
 70
     0
  9
$PDMODE
 70
     0
  9
$PDSIZE
 40
0.0
  9
$PLINEWID
 40
0.0
  9
$COORDS
 70
     1
  9
$SPLFRAME
 70
     0
  9
$SPLINETYPE
 70
     6
  9
$SPLINESEGS
 70
     8
  9
$ATTDIA
 70
     0
  9
$ATTREQ
 70
     1
  9
$HANDLING
 70
-16383
  9
$HANDSEED
  5
185
  9
$SURFTAB1
 70
     6
  9
$SURFTAB2
 70
     6
  9
$SURFTYPE
 70
     6
  9
$SURFU
 70
     6
  9
$SURFV
 70
     6
  9
$UCSNAME
  2

  9
$UCSORG
 10
0.0
 20
0.0
 30
0.0
  9
$UCSXDIR
 10
1.0
 20
0.0
 30
0.0
  9
$UCSYDIR
 10
0.0
 20
1.0
 30
0.0
  9
$PUCSNAME
  2

  9
$PUCSORG
 10
0.0
 20
0.0
 30
0.0
  9
$PUCSXDIR
 10
1.0
 20
0.0
 30
0.0
  9
$PUCSYDIR
 10
0.0
 20
1.0
 30
0.0
  9
$USERI1
 70
     0
  9
$USERI2
 70
     0
  9
$USERI3
 70
     0
  9
$USERI4
 70
     0
  9
$USERI5
 70
     0
  9
$USERR1
 40
0.09375
  9
$USERR2
 40
0.0
  9
$USERR3
 40
0.0
  9
$USERR4
 40
0.0
  9
$USERR5
 40
0.0
  9
$WORLDVIEW
 70
     1
  9
$SHADEDGE
 70
     3
  9
$SHADEDIF
 70
    70
  9
$TILEMODE
 70
     1
  9
$MAXACTVP
 70
    64
  9
$PINSBASE
 10
0.0
 20
0.0
 30
0.0
  9
$PLIMCHECK
 70
     0
  9
$PEXTMIN
 10
1.000000000000000E+20
 20
1.000000000000000E+20
 30
1.000000000000000E+20
  9
$PEXTMAX
 10
-1.000000000000000E+20
 20
-1.000000000000000E+20
 30
-1.000000000000000E+20
  9
$PLIMMIN
 10
0.0
 20
0.0
  9
$PLIMMAX
 10
12.0
 20
9.0
  9
$UNITMODE
 70
     0
  9
$VISRETAIN
 70
     1
  9
$PLINEGEN
 70
     0
  9
$PSLTSCALE
 70
     1
  9
$TREEDEPTH
 70
  3020
  9
$PICKSTYLE
 70
     1
  9
$CMLSTYLE
  2
STANDARD
  9
$CMLJUST
 70
     0
  9
$CMLSCALE
 40
1.0
  9
$SAVEIMAGES
 70
     1
  0
ENDSEC
  0
SECTION
  2
CLASSES
  0
CLASS
  1
ACDBDICTIONARYWDFLT
  2
AcDbDictionaryWithDefault
  3
AutoCAD 2000
 90
    32768
280
     0
281
     0
  0
CLASS
  1
ACDBPLACEHOLDER
  2
AcDbPlaceHolder
  3
AutoCAD 2000
 90
    32768
280
     0
281
     0
  0
CLASS
  1
LAYOUT
  2
AcDbLayout
  3
AutoCAD 2000
 90
    32768
280
     0
281
     0
  0
CLASS
  1
LONG_TRANSACTION
  2
AcDbLongTransaction
  3
AutoCAD 2000
 90
    32768
280
     0
281
     0
  0
CLASS
  1
LWPOLYLINE
  2
AcDbPolyline
  3
AutoCAD 2000
 90
    32768
280
     0
281
     1
  0
CLASS
  1
HATCH
  2
AcDbHatch
  3
AutoCAD 2000
 90
    32768
280
     0
281
     1
  0
CLASS
  1
XRECORD
  2
AcDbXrecord
  3
AutoCAD 2000
 90
    32768
280
     0
281
     0
  0
ENDSEC
  0
SECTION
  2
TABLES
  0
TABLE
  2
VPORT
  5
8
330
0
100
AcDbSymbolTable
 70
     3
  0
VPORT
  5
129
330
8
100
AcDbSymbolTableRecord
100
AcDbViewportTableRecord
  2
*ACTIVE
 70
     0
 10
0.0
 20
0.0
 11
1.0
 21
1.0
 12
6.18951418831655
 22
6.330596946913978
 13
0.0
 23
0.0
 14
0.5
 24
0.5
 15
0.5
 25
0.5
 16
0.0
 26
0.0
 36
1.0
 17
0.0
 27
0.0
 37
0.0
 40
9.0
 41
1.513903192584963
 42
50.0
 43
0.0
 44
0.0
 50
0.0
 51
0.0
 71
     0
 72
   100
 73
     1
 74
     3
 75
     0
 76
     0
 77
     0
 78
     0
  0
ENDTAB
  0
TABLE
  2
LTYPE
  5
5
330
0
100
AcDbSymbolTable
 70
     1
  0
LTYPE
  5
14
330
5
100
AcDbSymbolTableRecord
100
AcDbLinetypeTableRecord
  2
BYBLOCK
 70
     0
  3

 72
    65
 73
     0
 40
0.0
  0
LTYPE
  5
15
330
5
100
AcDbSymbolTableRecord
100
AcDbLinetypeTableRecord
  2
BYLAYER
 70
     0
  3

 72
    65
 73
     0
 40
0.0
  0
LTYPE
  5
16
330
5
100
AcDbSymbolTableRecord
100
AcDbLinetypeTableRecord
  2
CONTINUOUS
 70
     0
  3
Solid line
 72
    65
 73
     0
 40
0.0
  0
ENDTAB
  0
TABLE
  2
LAYER
  5
2
330
0
100
AcDbSymbolTable
 70
     5
  0
LAYER
  5
10
330
2
100
AcDbSymbolTableRecord
100
AcDbLayerTableRecord
  2
0
 70
     0
 62
     7
  6
CONTINUOUS
  0
LAYER
  5
34
330
2
100
AcDbSymbolTableRecord
100
AcDbLayerTableRecord
  2
L
 70
     0
 62
     7
  6
CONTINUOUS
  0
LAYER
  5
45
330
2
100
AcDbSymbolTableRecord
100
AcDbLayerTableRecord
  2
DEFPOINTS
 70
     0
 62
     7
  6
CONTINUOUS
  0
LAYER
  5
88
330
2
100
AcDbSymbolTableRecord
100
AcDbLayerTableRecord
  2
TX
 70
     0
 62
   150
  6
CONTINUOUS
  0
LAYER
  5
B5
330
2
100
AcDbSymbolTableRecord
100
AcDbLayerTableRecord
  2
MAIN
 70
     0
 62
     7
  6
CONTINUOUS
  0
ENDTAB
  0
TABLE
  2
STYLE
  5
3
330
0
100
AcDbSymbolTable
 70
     3
  0
STYLE
  5
11
330
3
100
AcDbSymbolTableRecord
100
AcDbTextStyleTableRecord
  2
STANDARD
 70
     0
 40
0.0
 41
1.0
 50
0.0
 71
     0
 42
0.09375
  3
txt
  4

  0
STYLE
  5
35
330
3
100
AcDbSymbolTableRecord
100
AcDbTextStyleTableRecord
  2
REG
 70
     0
 40
0.0
 41
1.0
 50
0.0
 71
     0
 42
0.09375
  3
E:\R13\com\fonts\ARCHITXT.SHX
  4

  0
STYLE
  5
36
330
3
100
AcDbSymbolTableRecord
100
AcDbTextStyleTableRecord
  2
DIMTXT
 70
     0
 40
0.0
 41
1.0
 50
0.0
 71
     0
 42
1.125
  3
archt.shx
  4

  0
ENDTAB
  0
TABLE
  2
VIEW
  5
6
330
0
100
AcDbSymbolTable
 70
     0
  0
ENDTAB
  0
TABLE
  2
UCS
  5
7
330
0
100
AcDbSymbolTable
 70
     0
  0
ENDTAB
  0
TABLE
  2
APPID
  5
9
330
0
100
AcDbSymbolTable
 70
     1
  0
APPID
  5
12
330
9
100
AcDbSymbolTableRecord
100
AcDbRegAppTableRecord
  2
ACAD
 70
     0
  0
ENDTAB
  0
TABLE
  2
DIMSTYLE
  5
A
330
0
100
AcDbSymbolTable
 70
    10
  0
DIMSTYLE
105
27
102
{ACAD_REACTORS
330
10B
330
119
102
}
330
A
100
AcDbSymbolTableRecord
100
AcDbDimStyleTableRecord
  2
STANDARD
 70
     0
  3

  4

  5

  6

  7

 40
1.0
 41
0.18
 42
0.0625
 43
0.38
 44
0.18
 45
0.0
 46
0.0
 47
0.0
 48
0.0
140
0.18
141
0.09
142
0.0
143
25.4
144
1.0
145
0.0
146
1.0
147
0.09
 71
     0
 72
     0
 73
     1
 74
     1
 75
     0
 76
     0
 77
     0
 78
     0
170
     0
171
     2
172
     0
173
     0
174
     0
175
     0
176
     0
177
     0
178
     0
270
     2
271
     2
272
     2
273
     2
274
     2
340
11
275
     0
280
     0
281
     0
282
     0
283
     1
284
     0
285
     0
286
     0
287
     3
288
     0
  0
DIMSTYLE
105
37
330
A
100
AcDbSymbolTableRecord
100
AcDbDimStyleTableRecord
  2
1
 70
     0
  3

  4

  5

  6

  7

 40
1.0
 41
1.125
 42
0.5
 43
0.375
 44
1.19921875
 45
0.0
 46
0.5
 47
0.0
 48
0.0
140
1.125
141
0.125
142
0.0
143
25.4
144
1.0
145
0.0
146
0.8
147
0.5625
 71
     0
 72
     0
 73
     0
 74
     0
 75
     0
 76
     0
 77
     1
 78
     3
170
     0
171
     2
172
     1
173
     0
174
     1
175
     0
176
   133
177
   133
178
   150
270
     2
271
     3
272
     3
273
     2
274
     2
340
36
275
     0
280
     0
281
     0
282
     0
283
     1
284
     0
285
     0
286
     0
287
     4
288
     0
  0
DIMSTYLE
105
38
330
A
100
AcDbSymbolTableRecord
100
AcDbDimStyleTableRecord
  2
1$2
 70
     0
  3

  4

  5
DOTSMALL
  6

  7

 40
1.0
 41
1.5
 42
0.5
 43
0.375
 44
1.19921875
 45
0.0
 46
0.5
 47
0.0
 48
0.0
140
0.75
141
0.125
142
0.0
143
25.4
144
1.0
145
0.0
146
0.8
147
0.5625
 71
     0
 72
     0
 73
     0
 74
     0
 75
     0
 76
     0
 77
     1
 78
     3
170
     0
171
     2
172
     1
173
     0
174
     1
175
     0
176
   133
177
   133
178
   150
270
     2
271
     3
272
     3
273
     2
274
     2
340
36
275
     0
280
     0
281
     0
282
     0
283
     1
284
     0
285
     0
286
     0
287
     4
288
     0
  0
DIMSTYLE
105
39
330
A
100
AcDbSymbolTableRecord
100
AcDbDimStyleTableRecord
  2
1$4
 70
     0
  3

  4

  5

  6

  7
DOTSMALL
 40
1.0
 41
1.5
 42
0.5
 43
0.375
 44
1.19921875
 45
0.0
 46
0.5
 47
0.0
 48
0.0
140
0.75
141
0.125
142
0.0
143
25.4
144
1.0
145
0.0
146
0.8
147
0.5625
 71
     0
 72
     0
 73
     0
 74
     0
 75
     0
 76
     0
 77
     1
 78
     3
170
     0
171
     2
172
     1
173
     1
174
     1
175
     0
176
   133
177
   133
178
   150
270
     2
271
     3
272
     3
273
     2
274
     2
340
36
275
     0
280
     0
281
     0
282
     0
283
     1
284
     0
285
     0
286
     0
287
     4
288
     0
  0
DIMSTYLE
105
3A
330
A
100
AcDbSymbolTableRecord
100
AcDbDimStyleTableRecord
  2
1$3
 70
     0
  3

  4

  5
DOTSMALL
  6

  7

 40
1.0
 41
1.5
 42
0.5
 43
0.375
 44
1.19921875
 45
0.0
 46
0.5
 47
0.0
 48
0.0
140
0.75
141
0.125
142
0.0
143
25.4
144
1.0
145
0.0
146
0.8
147
0.5625
 71
     0
 72
     0
 73
     0
 74
     0
 75
     0
 76
     0
 77
     1
 78
     3
170
     0
171
     2
172
     1
173
     0
174
     1
175
     0
176
   133
177
   133
178
   150
270
     2
271
     3
272
     3
273
     2
274
     2
340
36
275
     0
280
     0
281
     0
282
     0
283
     1
284
     0
285
     0
286
     0
287
     4
288
     0
  0
DIMSTYLE
105
3B
330
A
100
AcDbSymbolTableRecord
100
AcDbDimStyleTableRecord
  2
1$7
 70
     0
  3

  4

  5

  6

  7

 40
1.0
 41
1.0
 42
0.5
 43
0.375
 44
1.19921875
 45
0.0
 46
0.5
 47
0.0
 48
0.0
140
0.75
141
0.125
142
0.0
143
25.4
144
1.0
145
0.0
146
0.8
147
0.5625
 71
     0
 72
     0
 73
     0
 74
     0
 75
     0
 76
     0
 77
     1
 78
     3
170
     0
171
     2
172
     1
173
     0
174
     1
175
     0
176
   133
177
   133
178
   150
270
     2
271
     3
272
     3
273
     2
274
     2
340
36
275
     0
280
     0
281
     0
282
     0
283
     1
284
     0
285
     0
286
     0
287
     4
288
     0
  0
DIMSTYLE
105
B6
330
A
100
AcDbSymbolTableRecord
100
AcDbDimStyleTableRecord
  2
STANDARD$2
 70
     0
  3

  4

  5
DOTSMALL
  6

  7

 40
1.0
 41
1.5
 42
0.5
 43
0.375
 44
0.5
 45
0.0
 46
0.5
 47
0.0
 48
0.0
140
0.75
141
0.125
142
0.0
143
25.4
144
1.0
145
0.0
146
0.8
147
0.25
 71
     0
 72
     0
 73
     0
 74
     0
 75
     0
 76
     0
 77
     1
 78
     4
170
     0
171
     2
172
     1
173
     0
174
     1
175
     0
176
   133
177
   133
178
   150
270
     2
271
     3
272
     3
273
     2
274
     2
340
36
275
     0
280
     0
281
     0
282
     0
283
     1
284
     0
285
     0
286
     0
287
     3
288
     0
  0
DIMSTYLE
105
B7
330
A
100
AcDbSymbolTableRecord
100
AcDbDimStyleTableRecord
  2
STANDARD$4
 70
     0
  3

  4

  5

  6
DOTSMALL
  7
DOTSMALL
 40
1.0
 41
1.5
 42
0.5
 43
0.375
 44
0.5
 45
0.0
 46
0.5
 47
0.0
 48
0.0
140
0.75
141
0.125
142
0.0
143
25.4
144
1.0
145
0.0
146
0.8
147
0.25
 71
     0
 72
     0
 73
     1
 74
     1
 75
     0
 76
     0
 77
     0
 78
     4
170
     0
171
     2
172
     1
173
     1
174
     1
175
     0
176
   133
177
   133
178
   150
270
     2
271
     3
272
     3
273
     2
274
     2
340
36
275
     0
280
     0
281
     0
282
     0
283
     1
284
     0
285
     0
286
     0
287
     3
288
     1
  0
DIMSTYLE
105
B8
330
A
100
AcDbSymbolTableRecord
100
AcDbDimStyleTableRecord
  2
STANDARD$3
 70
     0
  3

  4

  5
DOTSMALL
  6

  7

 40
1.0
 41
1.5
 42
0.5
 43
0.375
 44
0.5
 45
0.0
 46
0.5
 47
0.0
 48
0.0
140
0.75
141
0.125
142
0.0
143
25.4
144
1.0
145
0.0
146
0.8
147
0.25
 71
     0
 72
     0
 73
     1
 74
     1
 75
     0
 76
     0
 77
     0
 78
     4
170
     0
171
     2
172
     1
173
     0
174
     1
175
     0
176
   133
177
   133
178
   150
270
     2
271
     3
272
     3
273
     2
274
     2
340
36
275
     0
280
     0
281
     0
282
     0
283
     1
284
     0
285
     0
286
     0
287
     3
288
     1
  0
DIMSTYLE
105
B9
330
A
100
AcDbSymbolTableRecord
100
AcDbDimStyleTableRecord
  2
STANDARD$7
 70
     0
  3

  4

  5
DOTSMALL
  6

  7

 40
1.0
 41
1.5
 42
0.5
 43
0.375
 44
0.5
 45
0.0
 46
0.5
 47
0.0
 48
0.0
140
0.75
141
0.125
142
0.0
143
25.4
144
1.0
145
0.0
146
0.8
147
0.25
 71
     0
 72
     0
 73
     0
 74
     0
 75
     0
 76
     0
 77
     1
 78
     4
170
     0
171
     2
172
     1
173
     0
174
     1
175
     0
176
   133
177
   133
178
   150
270
     2
271
     3
272
     3
273
     2
274
     2
340
36
275
     0
280
     0
281
     0
282
     0
283
     1
284
     0
285
     0
286
     0
287
     3
288
     0
  0
ENDTAB
  0
TABLE
  2
BLOCK_RECORD
  5
1
330
0
100
AcDbSymbolTable
 70
     7
  0
BLOCK_RECORD
  5
1F
102
{ACAD_XDICTIONARY
360
12C
102
}
330
1
100
AcDbSymbolTableRecord
100
AcDbBlockTableRecord
  2
*MODEL_SPACE
  0
BLOCK_RECORD
  5
1B
102
{ACAD_XDICTIONARY
360
12A
102
}
330
1
100
AcDbSymbolTableRecord
100
AcDbBlockTableRecord
  2
*PAPER_SPACE
  0
BLOCK_RECORD
  5
2B
330
1
100
AcDbSymbolTableRecord
100
AcDbBlockTableRecord
  2
_DOT
  0
BLOCK_RECORD
  5
30
330
1
100
AcDbSymbolTableRecord
100
AcDbBlockTableRecord
  2
_DOTSMALL
  0
BLOCK_RECORD
  5
10C
330
1
100
AcDbSymbolTableRecord
100
AcDbBlockTableRecord
  2
*D5
  0
BLOCK_RECORD
  5
11A
330
1
100
AcDbSymbolTableRecord
100
AcDbBlockTableRecord
  2
*D6
  0
ENDTAB
  0
ENDSEC
  0
SECTION
  2
BLOCKS
  0
BLOCK
  5
20
330
1F
100
AcDbEntity
  8
0
100
AcDbBlockBegin
  2
*MODEL_SPACE
 70
     0
 10
0.0
 20
0.0
 30
0.0
  3
*MODEL_SPACE
  1

  0
ENDBLK
  5
21
330
1F
100
AcDbEntity
  8
0
100
AcDbBlockEnd
  0
BLOCK
  5
1C
330
1B
100
AcDbEntity
 67
     1
  8
0
100
AcDbBlockBegin
  2
*PAPER_SPACE
 70
     0
 10
0.0
 20
0.0
 30
0.0
  3
*PAPER_SPACE
  1

  0
ENDBLK
  5
1D
330
1B
100
AcDbEntity
 67
     1
  8
0
100
AcDbBlockEnd
  0
BLOCK
  5
2E
330
2B
100
AcDbEntity
  8
0
100
AcDbBlockBegin
  2
_DOT
 70
     0
 10
0.0
 20
0.0
 30
0.0
  3
_DOT
  1

  0
POLYLINE
  5
2C
330
2B
100
AcDbEntity
  8
L
 62
     0
100
AcDb2dPolyline
 66
     1
 10
0.0
 20
0.0
 30
0.0
 70
     1
 40
0.5
 41
0.5
  0
VERTEX
  5
130
330
2C
100
AcDbEntity
  8
L
 62
     0
100
AcDbVertex
100
AcDb2dVertex
 10
-0.25
 20
0.0
 30
0.0
 42
1.0
  0
VERTEX
  5
131
330
2C
100
AcDbEntity
  8
L
 62
     0
100
AcDbVertex
100
AcDb2dVertex
 10
0.25
 20
0.0
 30
0.0
 42
1.0
  0
SEQEND
  5
132
330
2C
100
AcDbEntity
  8
L
 62
     0
  0
LINE
  5
2D
330
2B
100
AcDbEntity
  8
L
 62
     0
100
AcDbLine
 10
-0.5
 20
0.0
 30
0.0
 11
-1.0
 21
0.0
 31
0.0
  0
ENDBLK
  5
2F
330
2B
100
AcDbEntity
  8
0
100
AcDbBlockEnd
  0
BLOCK
  5
32
330
30
100
AcDbEntity
  8
0
 48
0.116666
100
AcDbBlockBegin
  2
_DOTSMALL
 70
     0
 10
0.0
 20
0.0
 30
0.0
  3
_DOTSMALL
  1

  0
POLYLINE
  5
31
330
30
100
AcDbEntity
  8
0
  6
BYBLOCK
 62
     0
100
AcDb2dPolyline
 66
     1
 10
0.0
 20
0.0
 30
0.0
 70
     1
 40
0.5
 41
0.5
  0
VERTEX
  5
133
330
31
100
AcDbEntity
  8
0
  6
BYBLOCK
 62
     0
100
AcDbVertex
100
AcDb2dVertex
 10
-0.0625
 20
0.0
 30
0.0
 42
1.0
  0
VERTEX
  5
134
330
31
100
AcDbEntity
  8
0
  6
BYBLOCK
 62
     0
100
AcDbVertex
100
AcDb2dVertex
 10
0.0625
 20
0.0
 30
0.0
 42
1.0
  0
SEQEND
  5
135
330
31
100
AcDbEntity
  8
0
  6
BYBLOCK
 62
     0
  0
ENDBLK
  5
33
330
30
100
AcDbEntity
  8
0
 48
0.116666
100
AcDbBlockEnd
  0
BLOCK
  5
117
330
10C
100
AcDbEntity
  8
0
100
AcDbBlockBegin
  2
*D5
 70
     1
 10
0.0
 20
0.0
 30
0.0
  3
*D5
  1

  0
LINE
  5
10D
330
10C
100
AcDbEntity
  8
0
 62
     0
100
AcDbLine
 10
5.589913964422382
 20
6.950238962340049
 30
0.0
 11
5.589913964422382
 21
7.269041211790597
 31
0.0
  0
LINE
  5
10E
330
10C
100
AcDbEntity
  8
0
 62
     0
100
AcDbLine
 10
6.693913964421515
 20
6.950238962340049
 30
0.0
 11
6.693913964421515
 21
7.269041211790597
 31
0.0
  0
LINE
  5
10F
330
10C
100
AcDbEntity
  8
0
 62
     0
100
AcDbLine
 10
5.683663964422382
 20
7.175291211790597
 30
0.0
 11
5.993476464421949
 21
7.175291211790597
 31
0.0
  0
LINE
  5
110
330
10C
100
AcDbEntity
  8
0
 62
     0
100
AcDbLine
 10
6.600163964421515
 20
7.175291211790597
 30
0.0
 11
6.290351464421949
 21
7.175291211790597
 31
0.0
  0
SOLID
  5
111
330
10C
100
AcDbEntity
  8
0
 62
     0
100
AcDbTrace
 10
5.683663964422382
 20
7.190916211790597
 30
0.0
 11
5.683663964422382
 21
7.159666211790597
 31
0.0
 12
5.589913964422382
 22
7.175291211790597
 32
0.0
 13
5.589913964422382
 23
7.175291211790597
 33
0.0
  0
SOLID
  5
112
330
10C
100
AcDbEntity
  8
0
 62
     0
100
AcDbTrace
 10
6.600163964421515
 20
7.190916211790597
 30
0.0
 11
6.600163964421515
 21
7.159666211790597
 31
0.0
 12
6.693913964421515
 22
7.175291211790597
 32
0.0
 13
6.693913964421515
 23
7.175291211790597
 33
0.0
  0
MTEXT
  5
113
330
10C
100
AcDbEntity
  8
0
 62
     0
100
AcDbMText
 10
6.141913964421949
 20
7.175291211790597
 30
0.0
 40
0.09375
 41
0.0
 71
     5
 72
     1
  1
\A1;1.10
1001
ACAD
1000
MTEXTBEGIN
1070
    73
1070
     1
1070
    44
1040
1.0
1070
    74
1070
     0
1000
MTEXTEND
  0
POINT
  5
114
330
10C
100
AcDbEntity
  8
DEFPOINTS
 62
     0
100
AcDbPoint
 10
5.589913964422382
 20
6.917686879006716
 30
0.0
  0
POINT
  5
115
330
10C
100
AcDbEntity
  8
DEFPOINTS
 62
     0
100
AcDbPoint
 10
6.693913964421515
 20
6.917686879006716
 30
0.0
  0
POINT
  5
116
330
10C
100
AcDbEntity
  8
DEFPOINTS
 62
     0
100
AcDbPoint
 10
6.693913964421515
 20
7.175291211790597
 30
0.0
  0
ENDBLK
  5
118
330
10C
100
AcDbEntity
  8
0
100
AcDbBlockEnd
  0
BLOCK
  5
126
330
11A
100
AcDbEntity
  8
0
100
AcDbBlockBegin
  2
*D6
 70
     1
 10
0.0
 20
0.0
 30
0.0
  3
*D6
  1

  0
LINE
  5
11B
330
11A
100
AcDbEntity
  8
0
 62
     0
100
AcDbLine
 10
5.567361881088813
 20
6.927686879006706
 30
0.0
 11
5.314292424994118
 21
6.927686879006706
 31
0.0
  0
LINE
  5
11C
330
11A
100
AcDbEntity
  8
0
 62
     0
100
AcDbLine
 10
5.794861881088549
 20
6.574755525608701
 30
0.0
 11
5.314292424994118
 21
6.574755525608701
 31
0.0
  0
LINE
  5
11D
330
11A
100
AcDbEntity
  8
0
 62
     0
100
AcDbLine
 10
5.408042424994118
 20
6.833936879006706
 30
0.0
 11
5.408042424994118
 21
6.668505525608701
 31
0.0
  0
LINE
  5
11E
330
11A
100
AcDbEntity
  8
0
 62
     0
100
AcDbLine
 10
5.408042424994118
 20
6.574755525608701
 30
0.0
 11
5.408042424994118
 21
6.481005525608701
 31
0.0
  0
LINE
  5
11F
330
11A
100
AcDbEntity
  8
0
 62
     0
100
AcDbLine
 10
5.408042424994118
 20
6.481005525608701
 30
0.0
 11
5.314292424994118
 21
6.481005525608701
 31
0.0
  0
SOLID
  5
120
330
11A
100
AcDbEntity
  8
0
 62
     0
100
AcDbTrace
 10
5.392417424994118
 20
6.833936879006706
 30
0.0
 11
5.423667424994118
 21
6.833936879006706
 31
0.0
 12
5.408042424994118
 22
6.927686879006706
 32
0.0
 13
5.408042424994118
 23
6.927686879006706
 33
0.0
  0
SOLID
  5
121
330
11A
100
AcDbEntity
  8
0
 62
     0
100
AcDbTrace
 10
5.392417424994118
 20
6.668505525608701
 30
0.0
 11
5.423667424994118
 21
6.668505525608701
 31
0.0
 12
5.408042424994118
 22
6.574755525608701
 32
0.0
 13
5.408042424994118
 23
6.574755525608701
 33
0.0
  0
MTEXT
  5
122
330
11A
100
AcDbEntity
  8
0
 62
     0
100
AcDbMText
 10
5.134604924994116
 20
6.481005525608702
 30
0.0
 40
0.09375
 41
0.0
 71
     5
 72
     1
  1
\A1;0.35
1001
ACAD
1000
MTEXTBEGIN
1070
    73
1070
     1
1070
    44
1040
1.0
1070
    74
1070
     0
1000
MTEXTEND
  0
POINT
  5
123
330
11A
100
AcDbEntity
  8
DEFPOINTS
 62
     0
100
AcDbPoint
 10
5.599913964422146
 20
6.927686879006706
 30
0.0
  0
POINT
  5
124
330
11A
100
AcDbEntity
  8
DEFPOINTS
 62
     0
100
AcDbPoint
 10
5.827413964421882
 20
6.574755525608701
 30
0.0
  0
POINT
  5
125
330
11A
100
AcDbEntity
  8
DEFPOINTS
 62
     0
100
AcDbPoint
 10
5.408042424994118
 20
6.574755525608701
 30
0.0
  0
ENDBLK
  5
127
330
11A
100
AcDbEntity
  8
0
100
AcDbBlockEnd
  0
ENDSEC
  0
SECTION
  2
ENTITIES
  0
TEXT
  5
C0
330
1F
100
AcDbEntity
  8
TX
100
AcDbText
 10
4.370525844857393
 20
5.392138480196557
 30
0.0
 40
0.09375
  1
SCALE : 1" = 1"
 11
4.370525844857393
 21
5.485888480196557
 31
0.0
100
AcDbText
 73
     3
  0
TEXT
  5
C1
330
1F
100
AcDbEntity
  8
0
 62
     3
100
AcDbText
 10
4.370525844857393
 20
5.673360165558641
 30
0.0
 40
0.140625
  1
SOCKET RACEWAY COVER #1987
100
AcDbText
  0
POLYLINE
  5
C2
330
1F
100
AcDbEntity
  8
0
 62
     5
100
AcDb2dPolyline
 66
     1
 10
0.0
 20
0.0
 30
0.0
 40
0.028125
 41
0.028125
  0
VERTEX
  5
15B
330
C2
100
AcDbEntity
  8
0
 62
     5
100
AcDbVertex
100
AcDb2dVertex
 10
4.276790002176351
 20
5.579624322877599
 30
0.0
  0
VERTEX
  5
15C
330
C2
100
AcDbEntity
  8
0
 62
     5
100
AcDbVertex
100
AcDb2dVertex
 10
8.102200060565682
 20
5.579624322877599
 30
0.0
  0
SEQEND
  5
15D
330
C2
100
AcDbEntity
  8
0
 62
     5
  0
POLYLINE
  5
E7
330
1F
100
AcDbEntity
  8
L
 62
     5
 48
0.116666
100
AcDb2dPolyline
 66
     1
 10
0.0
 20
0.0
 30
0.0
 70
     1
  0
VERTEX
  5
15E
330
E7
100
AcDbEntity
  8
L
 62
     5
 48
0.116666
100
AcDbVertex
100
AcDb2dVertex
 10
6.581611687821212
 20
6.816800240763178
 30
0.0
 42
-0.7645043570458551
  0
VERTEX
  5
15F
330
E7
100
AcDbEntity
  8
L
 62
     5
 48
0.116666
100
AcDbVertex
100
AcDb2dVertex
 10
6.594625663793156
 20
6.864686879006718
 30
0.0
  0
VERTEX
  5
160
330
E7
100
AcDbEntity
  8
L
 62
     5
 48
0.116666
100
AcDbVertex
100
AcDb2dVertex
 10
6.610913964421659
 20
6.864686879006718
 30
0.0
 42
0.290760316006052
  0
VERTEX
  5
161
330
E7
100
AcDbEntity
  8
L
 62
     5
 48
0.116666
100
AcDbVertex
100
AcDb2dVertex
 10
6.629017831506732
 20
6.876186879208582
 30
0.0
  0
VERTEX
  5
162
330
E7
100
AcDbEntity
  8
L
 62
     5
 48
0.116666
100
AcDbVertex
100
AcDb2dVertex
 10
6.629017832366432
 20
6.87618687880488
 30
0.0
 42
-0.2907603160053033
  0
VERTEX
  5
163
330
E7
100
AcDbEntity
  8
L
 62
     5
 48
0.116666
100
AcDbVertex
100
AcDb2dVertex
 10
6.647121699451506
 20
6.887686879006743
 30
0.0
  0
VERTEX
  5
164
330
E7
100
AcDbEntity
  8
L
 62
     5
 48
0.116666
100
AcDbVertex
100
AcDb2dVertex
 10
6.663913964421315
 20
6.887686879006743
 30
0.0
 42
0.4142135623730951
  0
VERTEX
  5
165
330
E7
100
AcDbEntity
  8
L
 62
     5
 48
0.116666
100
AcDbVertex
100
AcDb2dVertex
 10
6.693913964421515
 20
6.917686879006488
 30
0.0
 42
0.4142135623797547
  0
VERTEX
  5
166
330
E7
100
AcDbEntity
  8
L
 62
     5
 48
0.116666
100
AcDbVertex
100
AcDb2dVertex
 10
6.683913964421524
 20
6.927686879006706
 30
0.0
  0
VERTEX
  5
167
330
E7
100
AcDbEntity
  8
L
 62
     5
 48
0.116666
100
AcDbVertex
100
AcDb2dVertex
 10
5.599913964422146
 20
6.927686879006706
 30
0.0
 42
0.4142135623797547
  0
VERTEX
  5
168
330
E7
100
AcDbEntity
  8
L
 62
     5
 48
0.116666
100
AcDbVertex
100
AcDb2dVertex
 10
5.589913964422382
 20
6.917686879006716
 30
0.0
  0
VERTEX
  5
169
330
E7
100
AcDbEntity
  8
L
 62
     5
 48
0.116666
100
AcDbVertex
100
AcDb2dVertex
 10
5.589913964422382
 20
6.917686879006716
 30
0.0
 42
0.4142135623730951
  0
VERTEX
  5
16A
330
E7
100
AcDbEntity
  8
L
 62
     5
 48
0.116666
100
AcDbVertex
100
AcDb2dVertex
 10
5.619913964422355
 20
6.887686879006743
 30
0.0
  0
VERTEX
  5
16B
330
E7
100
AcDbEntity
  8
L
 62
     5
 48
0.116666
100
AcDbVertex
100
AcDb2dVertex
 10
5.636706229392164
 20
6.887686879006743
 30
0.0
 42
-0.2907603160053033
  0
VERTEX
  5
16C
330
E7
100
AcDbEntity
  8
L
 62
     5
 48
0.116666
100
AcDbVertex
100
AcDb2dVertex
 10
5.654810096477238
 20
6.87618687880488
 30
0.0
  0
VERTEX
  5
16D
330
E7
100
AcDbEntity
  8
L
 62
     5
 48
0.116666
100
AcDbVertex
100
AcDb2dVertex
 10
5.654810097336937
 20
6.876186879208582
 30
0.0
 42
0.2907603160060521
  0
VERTEX
  5
16E
330
E7
100
AcDbEntity
  8
L
 62
     5
 48
0.116666
100
AcDbVertex
100
AcDb2dVertex
 10
5.672913964422011
 20
6.864686879006718
 30
0.0
  0
VERTEX
  5
16F
330
E7
100
AcDbEntity
  8
L
 62
     5
 48
0.116666
100
AcDbVertex
100
AcDb2dVertex
 10
5.689202265050514
 20
6.864686879006718
 30
0.0
 42
-0.7645043570458551
  0
VERTEX
  5
170
330
E7
100
AcDbEntity
  8
L
 62
     5
 48
0.116666
100
AcDbVertex
100
AcDb2dVertex
 10
5.702216241022458
 20
6.816800240763178
 30
0.0
  0
VERTEX
  5
171
330
E7
100
AcDbEntity
  8
L
 62
     5
 48
0.116666
100
AcDbVertex
100
AcDb2dVertex
 10
5.70221624161363
 20
6.816800239755799
 30
0.0
 42
0.3374714457085803
  0
VERTEX
  5
172
330
E7
100
AcDbEntity
  8
L
 62
     5
 48
0.116666
100
AcDbVertex
100
AcDb2dVertex
 10
5.693020724570576
 20
6.794374949280133
 30
0.0
  0
VERTEX
  5
173
330
E7
100
AcDbEntity
  8
L
 62
     5
 48
0.116666
100
AcDbVertex
100
AcDb2dVertex
 10
5.727607566735603
 20
6.665295097048534
 30
0.0
 42
0.2843839822155832
  0
VERTEX
  5
174
330
E7
100
AcDbEntity
  8
L
 62
     5
 48
0.116666
100
AcDbVertex
100
AcDb2dVertex
 10
5.823426472879052
 20
6.575157058546302
 30
0.0
 42
1.0
  0
VERTEX
  5
175
330
E7
100
AcDbEntity
  8
L
 62
     5
 48
0.116666
100
AcDbVertex
100
AcDb2dVertex
 10
5.831401455964712
 20
6.614353992671205
 30
0.0
 42
-0.3442449771340293
  0
VERTEX
  5
176
330
E7
100
AcDbEntity
  8
L
 62
     5
 48
0.116666
100
AcDbVertex
100
AcDb2dVertex
 10
5.763430270263686
 20
6.693915310597823
 30
0.0
  0
VERTEX
  5
177
330
E7
100
AcDbEntity
  8
L
 62
     5
 48
0.116666
100
AcDbVertex
100
AcDb2dVertex
 10
5.7558315643133
 20
6.866808722044744
 30
0.0
 42
-0.4271373092427424
  0
VERTEX
  5
178
330
E7
100
AcDbEntity
  8
L
 62
     5
 48
0.116666
100
AcDbVertex
100
AcDb2dVertex
 10
5.775812276021131
 20
6.88768687900697
 30
0.0
  0
VERTEX
  5
179
330
E7
100
AcDbEntity
  8
L
 62
     5
 48
0.116666
100
AcDbVertex
100
AcDb2dVertex
 10
6.508015652822539
 20
6.887686879006743
 30
0.0
 42
-0.4271373092427425
  0
VERTEX
  5
17A
330
E7
100
AcDbEntity
  8
L
 62
     5
 48
0.116666
100
AcDbVertex
100
AcDb2dVertex
 10
6.52799636453037
 20
6.866808722044744
 30
0.0
  0
VERTEX
  5
17B
330
E7
100
AcDbEntity
  8
L
 62
     5
 48
0.116666
100
AcDbVertex
100
AcDb2dVertex
 10
6.520397658579984
 20
6.693915310597823
 30
0.0
 42
-0.3442449771340293
  0
VERTEX
  5
17C
330
E7
100
AcDbEntity
  8
L
 62
     5
 48
0.116666
100
AcDbVertex
100
AcDb2dVertex
 10
6.452426472878958
 20
6.614353992671205
 30
0.0
 42
0.9999999999999994
  0
VERTEX
  5
17D
330
E7
100
AcDbEntity
  8
L
 62
     5
 48
0.116666
100
AcDbVertex
100
AcDb2dVertex
 10
6.460401455964618
 20
6.575157058546302
 30
0.0
 42
0.2843839822155832
  0
VERTEX
  5
17E
330
E7
100
AcDbEntity
  8
L
 62
     5
 48
0.116666
100
AcDbVertex
100
AcDb2dVertex
 10
6.556220362108067
 20
6.665295097048534
 30
0.0
  0
VERTEX
  5
17F
330
E7
100
AcDbEntity
  8
L
 62
     5
 48
0.116666
100
AcDbVertex
100
AcDb2dVertex
 10
6.590807204273094
 20
6.794374949280133
 30
0.0
 42
0.3374714457085803
  0
VERTEX
  5
180
330
E7
100
AcDbEntity
  8
L
 62
     5
 48
0.116666
100
AcDbVertex
100
AcDb2dVertex
 10
6.58161168723004
 20
6.816800239755799
 30
0.0
  0
SEQEND
  5
181
330
E7
100
AcDbEntity
  8
L
 62
     5
 48
0.116666
  0
POLYLINE
  5
FA
330
1F
100
AcDbEntity
  8
L
 62
     5
 48
0.116666
100
AcDb2dPolyline
 66
     1
 10
0.0
 20
0.0
 30
0.0
  0
VERTEX
  5
182
330
FA
100
AcDbEntity
  8
L
 62
     5
 48
0.116666
100
AcDbVertex
100
AcDb2dVertex
 10
5.775812276021131
 20
6.887686879006743
 30
0.0
  0
VERTEX
  5
183
330
FA
100
AcDbEntity
  8
L
 62
     5
 48
0.116666
100
AcDbVertex
100
AcDb2dVertex
 10
5.775812276021131
 20
6.88768687900697
 30
0.0
  0
SEQEND
  5
184
330
FA
100
AcDbEntity
  8
L
 62
     5
 48
0.116666
  0
DIMENSION
  5
10B
330
1F
100
AcDbEntity
  8
0
100
AcDbDimension
  2
*D5
 10
6.693913964421515
 20
7.175291211790597
 30
0.0
 11
6.141913964421949
 21
7.175291211790597
 31
0.0
 70
    32
  3
STANDARD
100
AcDbAlignedDimension
 13
5.589913964422382
 23
6.917686879006716
 33
0.0
 14
6.693913964421515
 24
6.917686879006716
 34
0.0
100
AcDbRotatedDimension
1001
ACAD
1000
DSTYLE
1002
{
1070
    40
1040
0.5208333333333334
1002
}
  0
DIMENSION
  5
119
330
1F
100
AcDbEntity
  8
0
100
AcDbDimension
  2
*D6
 10
5.408042424994118
 20
6.574755525608701
 30
0.0
 11
5.134604924994116
 21
6.481005525608702
 31
0.0
 70
    32
  3
STANDARD
100
AcDbAlignedDimension
 13
5.599913964422146
 23
6.927686879006706
 33
0.0
 14
5.827413964421882
 24
6.574755525608701
 34
0.0
 50
90.0
100
AcDbRotatedDimension
1001
ACAD
1000
DSTYLE
1002
{
1070
    40
1040
0.5208333333333334
1002
}
  0
ENDSEC
  0
SECTION
  2
OBJECTS
  0
DICTIONARY
  5
C
330
0
100
AcDbDictionary
  3
ACAD_GROUP
350
D
  3
ACAD_LAYOUT
350
1A
  3
ACAD_MLINESTYLE
350
17
  3
ACAD_PLOTSETTINGS
350
19
1001
ACAD
1000
TREAT_AS_HARD
1070
     0
  0
DICTIONARY
  5
12C
330
1F
100
AcDbDictionary
  3
ACAD_LAYOUTSELFREF
350
12D
  0
DICTIONARY
  5
12A
330
1B
100
AcDbDictionary
  3
ACAD_LAYOUTSELFREF
350
12B
  0
DICTIONARY
  5
D
102
{ACAD_REACTORS
330
C
102
}
330
C
100
AcDbDictionary
1001
ACAD
1000
TREAT_AS_HARD
1070
     0
  0
DICTIONARY
  5
1A
102
{ACAD_REACTORS
330
C
102
}
330
C
100
AcDbDictionary
1001
ACAD
1000
TREAT_AS_HARD
1070
     0
  0
DICTIONARY
  5
17
102
{ACAD_REACTORS
330
C
102
}
330
C
100
AcDbDictionary
  3
STANDARD
350
18
1001
ACAD
1000
TREAT_AS_HARD
1070
     0
  0
DICTIONARY
  5
19
102
{ACAD_REACTORS
330
C
102
}
330
C
100
AcDbDictionary
1001
ACAD
1000
TREAT_AS_HARD
1070
     0
  0
XRECORD
  5
12D
102
{ACAD_REACTORS
330
12C
102
}
330
12C
100
AcDbXrecord
340
1F
  0
XRECORD
  5
12B
102
{ACAD_REACTORS
330
12A
102
}
330
12A
100
AcDbXrecord
340
1B
  0
MLINESTYLE
  5
18
102
{ACAD_REACTORS
330
17
102
}
330
17
100
AcDbMlineStyle
  2
STANDARD
 70
     0
  3

 62
   256
 51
90.0
 52
90.0
 71
     2
 49
0.5
 62
   256
  6
BYLAYER
 49
-0.5
 62
   256
  6
BYLAYER
  0
ENDSEC
  0
EOF
